nelson19

Rosario_to_vampire-2

nelson19

965745f0aaeec5ee3ae13d7a1d8e9312?size=50&default=retro

Comentarios: 157
Animes en la lista: 0
Enviar mensaje privado

Escrito hace más de 7 años en Upotte!! - Episodio 1 al 10 - Suprem Fansub Nombre: Supremo no Fansub
Web: http://animesnf.blogspot.com/
Mas descargas de Upotte!! por Suprem

Eso dice en su panel derecho.
Escrito hace más de 7 años en High Score - Episodio 01 al 08 - web - Hoshi http://u2.dmhy.org/details.php?id=13721
Escrito hace más de 7 años en Ginga e Kickoff!! - Episodio 1 al 39 - Hoshi Gracias por terminarla.
Escrito hace más de 7 años en Kannagi - Episodio 01 al 14 - AT Creo que es el mismo de AnimeTeam (subs): http://irisnofansub.blogspot.com/2012/02/phantom-requiem-for-phantom-completa.html

Cambiaron el vídeo de TV por Blu-ray, citando:
"La serie es una recopilación de varios proyectos que no fueron terminados (por eso tantos fansubs), por parte del staff de INF estuve mucho tiempo recopilando información, haciendo las traducciones faltantes y algunos ajustes de tiempo para poder recuperar esta serie de internet xd bueno esa es la idea, de fans para fans xD"

Y los Fansub: Iris no Fansub, Anime Team, Coalgirls, FSC


De cualquier modo esperare su versión. ¿Sera reshare de la serie?
Escrito hace más de 7 años en Chou Soku Henkei Gyrozetter - Episodio 24 - USP Cuando hay escenas en movimiento las versiones con poco bitrate se ven mal, no recomendado esas calidades salvo si lo visualizan en tu celular.
Escrito hace más de 7 años en Kannagi - Episodio 01 al 14 - AT Gracias bajando, el resto de fansubs los tenían 100% subs pegados.

Me los hubiera regalado: http://www.fancueva.com/manganime/un-otaku-destruye-sus-tomos-de-kannagi-porque-es-posible-que-nagi-no-sea-virgen/ (en Venezuela falta papel higiénico)
Escrito hace más de 7 años en Yuyushiki - Episodio 09 - HDTV - Hoshi ¿Que tapa?
Escrito hace más de 7 años en Kotonoha no Niwa - Película - SE Este es uno que tiene 8bits.

General
Unique ID : 50351902331036849541508418318784143622 (0x25E16C740A1548845E53760293622106)
Complete name : [Tekeremata]_Kotonoha_no_Niwa.hi8-1080p-AC3.mkv
Format : Matroska
File size : 1.57 GiB
Duration : 45mn 51s
Overall bit rate : 4 906 Kbps
Encoded date : UTC 2010-02-22 21:41:31
Writing application : mkvmerge v5.9.0 ('On The Loose') built on Dec 9 2012 16:05:20
Writing library : libebml v1.3.0 + libmatroska v1.4.0
Cover : Yes / Yes / Yes / Yes / Yes / Yes

Video
ID : 1
Format : AVC
Format/Info : Advanced Video Codec
Format profile : High@L4.1
Format settings, CABAC : Yes
Format settings, ReFrames : 4 frames
Codec ID : V_MPEG4/ISO/AVC
Duration : 45mn 51s
Bit rate : 4 361 Kbps
Width : 1 920 pixels
Height : 1 080 pixels
Display aspect ratio : 16:9
Frame rate : 23.976 fps
Color space : YUV
Chroma subsampling : 4:2:0
Bit depth : 8 bits
Scan type : Progressive
Bits/(Pixel*Frame) : 0.088
Stream size : 1.40 GiB (89%)
Writing library : x264 core 130 r2274 c832fe9
Encoding settings : cabac=1 / ref=4 / deblock=1:1:1 / analyse=0x3:0x133 / me=umh / subme=9 / psy=1 / psy_rd=0.40:0.00 / mixed_ref=1 / me_range=16 / chroma_me=1 / trellis=2 / 8x8dct=1 / cqm=0 / deadzone=21,11 / fast_pskip=1 / chroma_qp_offset=-2 / threads=12 / lookahead_threads=1 / sliced_threads=0 / nr=0 / decimate=1 / interlaced=0 / bluray_compat=0 / constrained_intra=0 / bframes=5 / b_pyramid=2 / b_adapt=2 / b_bias=0 / direct=3 / weightb=1 / open_gop=0 / weightp=2 / keyint=250 / keyint_min=23 / scenecut=40 / intra_refresh=0 / rc_lookahead=60 / rc=crf / mbtree=1 / crf=19.0 / qcomp=0.60 / qpmin=0 / qpmax=69 / qpstep=4 / vbv_maxrate=62500 / vbv_bufsize=62500 / crf_max=0.0 / nal_hrd=none / ip_ratio=1.40 / aq=1:0.60
Language : Japanese

Audio
ID : 2
Format : AC-3
Format/Info : Audio Coding 3
Mode extension : CM (complete main)
Codec ID : A_AC3
Duration : 45mn 51s
Bit rate mode : Constant
Bit rate : 448 Kbps
Channel(s) : 6 channels
Channel positions : Front: L C R, Side: L R, LFE
Sampling rate : 48.0 KHz
Bit depth : 16 bits
Compression mode : Lossy
Stream size : 147 MiB (9%)
Language : Japanese

Text
ID : 3
Format : ASS
Codec ID : S_TEXT/ASS
Codec ID/Info : Advanced Sub Station Alpha
Compression mode : Lossless
Language : Spanish

Escrito hace más de 7 años en Kotonoha no Niwa - Película - SE General
Unique ID : 224165198004996689002770671282443743764 (0xA8A4A59046BBE6048F52447FBC0F7214)
Complete name : [Seinagi]The Garden of Words [BD 1080p].mkv
Format : Matroska
File size : 2.32 GiB
Duration : 45mn 51s
Overall bit rate : 7 246 Kbps
Movie name : [Seinagi] The Garden of Words [BD 1080p]
Encoded date : UTC 2013-06-13 11:29:12
Writing application : mkvmerge v6.1.0 ('Old Devil') built on Mar 2 2013 14:32:37
Writing library : libebml v1.3.0 + libmatroska v1.4.0
Cover : Yes / Yes / Yes / Yes / Yes / Yes / Yes / Yes / Yes / Yes / Yes / Yes / Yes / Yes / Yes / Yes / Yes / Yes / Yes

Video
ID : 1
Format : AVC
Format/Info : Advanced Video Codec
Format profile : High 10@L5.1
Format settings, CABAC : Yes
Format settings, ReFrames : 16 frames
Codec ID : V_MPEG4/ISO/AVC
Duration : 45mn 51s
Width : 1 920 pixels
Height : 1 080 pixels
Display aspect ratio : 16:9
Frame rate : 23.976 fps
Color space : YUV
Chroma subsampling : 4:2:0
Bit depth : 10 bits
Scan type : Progressive
Writing library : x264 core 129 r2245+729M 1a52e03
Encoding settings : cabac=1 / ref=16 / deblock=1:0:0 / analyse=0x3:0x133 / me=umh / subme=10 / psy=1 / fade_compensate=0.72 / psy_rd=0.80:0.20 / mixed_ref=1 / me_range=24 / chroma_me=1 / trellis=2 / 8x8dct=1 / cqm=0 / deadzone=21,11 / fast_pskip=1 / chroma_qp_offset=-3 / threads=6 / lookahead_threads=1 / sliced_threads=0 / nr=0 / decimate=1 / interlaced=0 / bluray_compat=0 / constrained_intra=0 / fgo=0 / bframes=16 / b_pyramid=2 / b_adapt=2 / b_bias=0 / direct=3 / weightb=1 / open_gop=0 / weightp=2 / keyint=250 / keyint_min=23 / scenecut=40 / intra_refresh=0 / rc_lookahead=40 / rc=crf / mbtree=1 / crf=17.0 / qcomp=0.72 / qpmin=0 / qpmax=81 / qpstep=4 / ip_ratio=1.40 / aq=3:0.80
Language : Japanese

Audio
ID : 2
Format : AAC
Format/Info : Advanced Audio Codec
Format profile : LC
Codec ID : A_AAC
Duration : 45mn 51s
Channel(s) : 6 channels
Channel positions : Front: L C R, Side: L R, LFE
Sampling rate : 48.0 KHz
Compression mode : Lossy
Delay relative to video : 9ms
Language : Japanese

Text
ID : 3
Format : ASS
Codec ID : S_TEXT/ASS
Codec ID/Info : Advanced Sub Station Alpha
Compression mode : Lossless
Language : Spanish
Escrito hace más de 7 años en Love Live! School Idol Project - Episodio 01 al 3 - Hoshi Gracias por la serie.
Escrito hace más de 7 años en Blame! Suena a resident evil
Escrito hace más de 7 años en Chihayafuru 2 - Episodio 20 al 22 - AnaF Gracias por la serie.
Escrito hace más de 7 años en Sword Art Online yo recomiendo que la veas. cada uno tiene una opinión diferente.
Escrito hace más de 7 años en Hagure Yuusha no Estetica - Episodio 1 al 2 - Hagure el correcto http://pastebin.com/TfAi8XDu
Escrito hace más de 7 años en Onii-chan Dakedo Ai Sae Areba Kankeinai yo ne! - Episodio 01 al 12 - JN La versión TV tenia mucha censura.

http://www.kira-reviews.com/blog/archives/category/oniai
Escrito hace más de 7 años en Natsuyasumi. - Episodio 02 - Puya+ Genero: Adulto, hentai, Shota, yaoi
Escrito hace más de 7 años en RDG: Red Data Girl - Episodio 3 - Kuro Eso dice:

El mundo del fagsubeo en hezpañol está podrido. No hay nada que hacerle.
Seguramente allá afuera hay cosas más interesantes que tratar de salvar la Internet.
Nosotros nos rendimos. Hasta nunca.

¿Nuestros proyectos en curso?
Esos se transferirán a otros fansubs

¿Tendrá algo que ver el flameo de esta entrada?
Escrito hace casi 8 años en Busou Shinki - Episodio 03 al 4 - Tosho Su página del fansub al lado derecho esta mal puesto.
Escrito hace casi 8 años en Strawberry Panic - Episodio 1 al 26 - AU Chica conoce Chica.
Escrito hace casi 8 años en Karin Rakuen
Escrito hace casi 8 años en Namiuchigiwa no Muromi-san - Episodio 06 - Dorami resumen, no había nada que mostrar.
Escrito hace casi 8 años en Kami nomi zo Shiru Sekai: Tenri Hen - OVA 01 DVD - Osoku La chica con "doble personalidad".
Escrito hace casi 8 años en School Days - Episodio 10 - -GNF- Mi comentario, al final (de la serie) el protagonista recibió su merecido.

subir arriba
2002/2015 Frozen-Layer