Descarga Marmalade Boy - Episodio 1 - AR - Bittorrent -

Code_geass_hangyaku_no_lelouch-2

Marmalade Boy Episodio 1 al 76 - AR

Marmalade_Boy-1
  • Idioma Audio:

    Dual Jap-Esp
  • Idioma Subtitulos:

    Español
  • Tamaño: 19862 MB
  • Fansub: AnimeRiper
  • Enviado por: Shindo-hikaru
  • Antiguedad: 5 años 20:06 - 02 Apr
  • Seeds: 2
  • Peers: 0
  • Descargas Completadas: 1500
  • Descargas del torrent: 4074
  • Magnet Link: Descargar

Descripcion

Pues aqui os dejo marmalade boy(la familia crece aqui en españa),en este pack esta incluida la pelicula tambien ^_^

Y como siempre si quereis que suba alguna serie pedirmela y haré lo posible por subirla y si os hacen falta seeds para algun torrent enviarme un privado y me pondre unas horas :)

Calidad: Dvd-rip
Audio: Castellano/japones
Subtitulos: Si
By: tusdivx

Capturas


Comentarios

Escrito hace 5 años "La Familia crece"
Todo un clásico. Muchas gracias.
Escrito hace 5 años gracias
Escrito hace 5 años thx

¿Algún fansub trabajo Kimagure Orange Road?
Escrito hace 5 años hola, pues yo la tengo pero creo que solo dual sin subs.
Escrito hace 5 años ¿esta creo?:

Johnny y sus amigos 01 - Una nueva ciudad [DVDBOX+VHS dual by XeTe].ogm

es una lastima que no tenga subs, hay otra versión de 3 audios que si lleva subs pero la calidad no es muy buena.

http://imgur.com/ZTUgBjX,6ZoDHI5,FBNbr7k,IPUyDWo,Wdefw1N

https://mega.co.nz/#!HRNDkaLD!ltx5WX0pFmEeVyrGN3ZmsbCmsfQ-vkpihoKnWRmrCPY

General
Unique ID : 183514795709384969365693824034234999806 (0x8A0FA9FDD608CB3BAA75177E9668A3FE)
Complete name : Kimagure Orange Road - 01 - Una Nueva Ciudad.mkv
Format : Matroska
Format version : Version 1
File size : 229 MiB
Duration : 25mn 8s
Overall bit rate : 1 271 Kbps
Encoded date : UTC 2007-04-22 00:43:04
Writing application : mkvmerge v2.0.2 ('You're My Flame') built on Feb 21 2007 23:40:55
Writing library : libebml v0.7.7 + libmatroska v0.8.1
Attachment : Yes / Yes / Yes / Yes / Yes / Yes

Video
ID : 1
Format : MPEG-4 Visual
Format settings, BVOP : Yes
Format settings, QPel : No
Format settings, GMC : No warppoints
Format settings, Matrix : Default (H.263)
Codec ID : V_MS/VFW/FOURCC / DX50
Codec ID/Hint : DivX 5
Duration : 25mn 8s
Bit rate : 925 Kbps
Width : 640 pixels
Height : 480 pixels
Display aspect ratio : 4:3
Frame rate mode : Constant
Frame rate : 25.000 fps
Color space : YUV
Chroma subsampling : 4:2:0
Bit depth : 8 bits
Scan type : Progressive
Compression mode : Lossy
Bits/(Pixel*Frame) : 0.120
Stream size : 166 MiB (73%)
Writing library : DivX 6.2.5 (UTC 2006-07)
Default : Yes
Forced : No

Audio #1
ID : 2
Format : MPEG Audio
Format version : Version 1
Format profile : Layer 3
Codec ID : A_MPEG/L3
Codec ID/Hint : MP3
Duration : 25mn 8s
Bit rate mode : Constant
Bit rate : 112 Kbps
Channel(s) : 2 channels
Sampling rate : 44.1 KHz
Compression mode : Lossy
Stream size : 20.1 MiB (9%)
Title : japones
Language : Japanese
Default : Yes
Forced : No

Audio #2
ID : 3
Format : MPEG Audio
Format version : Version 1
Format profile : Layer 3
Codec ID : A_MPEG/L3
Codec ID/Hint : MP3
Duration : 25mn 8s
Bit rate mode : Constant
Bit rate : 112 Kbps
Channel(s) : 2 channels
Sampling rate : 44.1 KHz
Compression mode : Lossy
Stream size : 20.1 MiB (9%)
Title : jonu
Language : Spanish
Default : No
Forced : No

Audio #3
ID : 4
Format : MPEG Audio
Format version : Version 1
Format profile : Layer 3
Mode : Joint stereo
Mode extension : Intensity Stereo + MS Stereo
Codec ID : A_MPEG/L3
Codec ID/Hint : MP3
Duration : 25mn 8s
Bit rate mode : Constant
Bit rate : 96.0 Kbps
Channel(s) : 2 channels
Sampling rate : 44.1 KHz
Compression mode : Lossy
Stream size : 17.3 MiB (8%)
Title : T5
Language : Spanish
Default : No
Forced : No

Text #1
ID : 5
Format : ASS
Codec ID : S_TEXT/ASS
Codec ID/Info : Advanced Sub Station Alpha
Compression mode : Lossless
Title : Japones
Language : Spanish
Default : Yes
Forced : No

Text #2
ID : 6
Format : SSA
Codec ID : S_TEXT/SSA
Codec ID/Info : Sub Station Alpha
Compression mode : Lossless
Title : T5
Language : Spanish
Default : No
Forced : No

Escrito hace 5 años No era esa version me parece sino lo que puedo hacer tengo los dvds por aqui por casa la puedo ripear y hacer una version dual con subs XD
Escrito hace casi 5 años Seria un buen aporte, con lo difícil que es encontrar esa versión. Si no puedes ripearlo, comparte los dvds :D

No sabia que en España habían editado todo: serie, ovas y película http://www.zonadvd.com/modules.php?name=Busqueda&palabra=Kimagure+Orange+Road
Escrito hace 5 años Intento descargármelo a través del Torrent y me da error al descargarlo... Alguien sabe por qué?
Escrito hace más de 4 años Podria compartir por favor, no hay casi ninguna seed.
Gracias
Escrito hace más de 3 años Por favor, podria compartir... necesito un poco de seed!!! Gracias!

Tienes que identificarte para dejar tu comentario

subir arriba
2002/2015 Frozen-Layer